PDA

View Full Version : 1969-01-23 Sportpalast, Berlin (1st gen reel)



opib
02-05-08, 01:48 PM
Hi folks!

As requested 1969-01-23 Sportpalast, Berlin
This was seeded in Nov 2007 here, i think.

I renamed the files (hope thats ok) and added a md5 file.

All files tested in tlh for decoding errors and losslessnes :)
No errors found and 100% propability cdda.

Hope i didn't make any other stupid mistake this time....

original info below the line
-----------------------------------------------------------

artist: JIMI HENDRIX EXPERIENCE

place: SPORTPALAST, BERLIN, GERMANY

date: JANUARY 23, 1969

lineage show: MASTER > 1st GEN. REEL > CDR > EAC > WAV > FLAC

lineage conversation: MASTER > LOW GEN. TAPE > CDR > EAC > WAV > FLAC

quality: VERY GOOD+ AUDIENCE RECORDING (SHOW), GOOD AUDIENCE RECORDING (CONVERSATION)

notes: PRESENTED BY LIPPMANN + RAU / 1 SHOW (20:00) / 20000 PEOPLE

artwork: NOT YET

*******************************
****** RESEED BY REQUEST ******
*******************************


tracklisting:
1. DRESSING ROOM CONVERSATION
2. FIRE
3. SPANISH CASTLE MAGIC
4. FOXY LADY
5. RED HOUSE
6. COME ON
7. SUNSHINE OF YOUR LOVE
8. PURPLE HAZE

length expanded size cdr WAVE problems filename
8:35.15 90881324 --- -- ---xx Track01.flac
4:10.37 44187068 --- -- ---xx Track02.flac
4:25.61 46889516 --- -- ---xx Track03.flac
7:47.55 82508204 --- -- ---xx Track04.flac
4:36.26 48747596 --- -- ---xx Track05.flac
10:23.02 109901948 --- -- ---xx Track06.flac
3:57.30 41877404 --- -- ---xx Track07.flac
6:51.59 72639212 --- -- ---xx Track08.flac
4:29.09 47472812 --- -- ---xx Track09.flac
55:16.69 585105084 B
(totals for 9 files, 0.6981 overall compression ratio)


Enjoy, Share & Preserve Quality !!!
Brought to You by BP
[December 2005]

voodoo_child58
02-05-08, 06:00 PM
:rasta: Many, many thanks, you're so kind

opib
02-06-08, 01:03 AM
Thank YOU for all your uploads :)

Ganoosh
02-06-08, 10:13 AM
Killer show, I'm really enjoying this thank you

eadazel
02-06-08, 10:45 AM
thanks man!!! that's very cool!

hendrix68
08-20-08, 11:01 PM
thank you! feelin alright!

Armel
08-21-08, 03:59 AM
Great show..thank you

volvo
08-28-08, 12:58 PM
Many thanx for this concert.

DenHaagNL
09-26-08, 12:34 PM
:000-thanx: for sharing this with the World !!

I haven't deleted any of my downloads. I'll always keep them in my list!

So, if anyone needs a seeder for this download, just send me a PM so I can start uploading!
:thayou219bl:


Peace & Happiness
Glenn from the Netherlands

jfjfjf
11-04-08, 08:51 PM
Opib! Thanks a lot.
The same for seeders and 'trigger' (artwork).

zombywoof57
08-02-10, 08:33 PM
i thank-you as well but i'll thank-you even more for a seed???

Igemo75
09-19-11, 08:43 AM
:avatar45607_2:

trigger
01-09-12, 05:27 PM
Thanks !!! made up some cover art with some photos i had from the show.


Trigger

sloekvarken
10-05-15, 01:08 PM
Is it possible to reseed this one please?

Paul Fitz
10-05-15, 04:21 PM
Seeding this now.

shnfoobar
01-18-19, 06:11 AM
Thank you to whoever reseeded this for me, (I can't tell, since it was finished before I noticed).
Very much appreciated.