PDA

View Full Version : "The First Rays Of The New Rising Sun"



paul56
03-11-08, 06:14 PM
Jimi Hendrix

Liberated Bootleg
"The First Rays Of The New Rising Sun"
Triangle PYCD 084-2


http://i260.photobucket.com/albums/ii33/paul56_bucket/firstrayscover.jpg



http://i260.photobucket.com/albums/ii33/paul56_bucket/firstraysback.jpg



Original CDs > EAC > SHN > FLAC

d1:
01. Izabella (Tk 1-3 reel3, Tk 1-3 reel4)
02. Machine Gun (Try Out)
03. I'm A Man (So I'm Trying To Be) (Tk1)
04. Lord I Can See The Blues (For Me And You)
05. I'm A Man (So I'm Trying To Be) (Tk 2)
06. Beginnings (Alt Intr Mix)
07. Valleys of Neptune (Instr Blues Jam)

d2:
01. Send My Love To Linda (Tk 1-3)
02. Ships Passing In The Night
03. Heaven Has No Sorrow (Tk 1-2)
04. Valleys Of Neptune (Instr)
05. Alcatrazz
06. Night Bird Flying
07. Live And Let Live
08. Highway Of Desire / $7 Dollar In My Pocket
09. Midnight Lightning
10. Angel
11. Look Over Yonder
12. Astroman (Instr)
13. 1983... A Merman I Should Turn To Be

Notes: EXCELLENT quality studio outtakes and jam sessions recorded with the Cry of Love band at The Record Plant (1969) and Electric Lady Studios (1970).

This is not an illegitimate version of the Experience Hendrix release of the same name.

This was released in 1993 and remains as one of my favorite bootlegs. Not to toot my own horn, but every Hendrix fan should get this. I won't say why; the music speaks for itself.

originally seeded by dizong at ezt

Special thanks to JellyBelly for sharing !

*****************************
MP3 FOR PERSONAL USE ONLY!!!!
DO NOT SELL!!!!!!!!!!!!!!!!!!
*****************************

cd2974c81c3d29052ad0a740326a8d66 [shntool] jh-frotnrs-d1t01.flac
8f64d7cd0135ea68229697c54aa583c7 [shntool] jh-frotnrs-d1t02.flac
af3449f9369e17c2c1a0f6a0a2448a0d [shntool] jh-frotnrs-d1t03.flac
f2254b8739a05882e5887153e46db385 [shntool] jh-frotnrs-d1t04.flac
a79c1d9923ac8b4d653bd15f0d4bcfce [shntool] jh-frotnrs-d1t05.flac
ab60a0eba3c6e78557bdd8253ea5d8d7 [shntool] jh-frotnrs-d1t06.flac
840b1fbc9db3b452efdf85aa3da15d09 [shntool] jh-frotnrs-d1t07.flac
049b3249fdbe9574de4422aaffced36a [shntool] jh-frotnrs-d2t01.flac
1091721949377c0c86f3c49d301fd8bd [shntool] jh-frotnrs-d2t02.flac
d7e7a25bbeea89d7ccbb9772c34302d3 [shntool] jh-frotnrs-d2t03.flac
345b12404e50cd852d4dfd2d8edaf641 [shntool] jh-frotnrs-d2t04.flac
624f9cdb2d6d8c68ce09e1057e62c344 [shntool] jh-frotnrs-d2t05.flac
c5b0ede87cccee380ccf90a9e335cf20 [shntool] jh-frotnrs-d2t06.flac
e4a6ec2856e63e6d18c0b9a1c7cd6524 [shntool] jh-frotnrs-d2t07.flac
59eff13b12c1b0d4be36075842685ef3 [shntool] jh-frotnrs-d2t08.flac
26979a7ef9b21762f628aa22b2458ce7 [shntool] jh-frotnrs-d2t09.flac
3678391cf642fe8e4b08fee38844be1d [shntool] jh-frotnrs-d2t10.flac
9ef33f709819d7689006fa4a670626b3 [shntool] jh-frotnrs-d2t11.flac
05386d6f781ce6e3dd5e5d6244532608 [shntool] jh-frotnrs-d2t12.flac
c6e230bdb254afd2c66f8da4c2170234 [shntool] jh-frotnrs-d2t13.flac

length expanded size cdr WAVE problems filename
16:32.55 175118204 --- -- ---xx jh-frotnrs-d1t01.flac
12:50.18 135870380 --- -- ---xx jh-frotnrs-d1t02.flac
16:06.50 170520044 --- -- ---xx jh-frotnrs-d1t03.flac
9:19.20 98654684 --- -- ---xx jh-frotnrs-d1t04.flac
7:15.12 76762268 --- -- ---xx jh-frotnrs-d1t05.flac
5:27.43 57783980 --- -- ---xx jh-frotnrs-d1t06.flac
4:33.50 48274844 --- -- ---xx jh-frotnrs-d1t07.flac
4:00.57 42470108 --- -- ---xx jh-frotnrs-d2t01.flac
2:39.58 28184060 --- -- ---xx jh-frotnrs-d2t02.flac
7:28.62 79173068 --- -- ---xx jh-frotnrs-d2t03.flac
2:57.55 31352204 --- -- ---xx jh-frotnrs-d2t04.flac
4:15.38 45071420 --- -- ---xx jh-frotnrs-d2t05.flac
3:30.35 37126364 --- -- ---xx jh-frotnrs-d2t06.flac
5:49.05 61575404 --- -- ---xx jh-frotnrs-d2t07.flac
14:16.50 151116044 --- -- ---xx jh-frotnrs-d2t08.flac
6:18.17 66719228 --- -- ---xx jh-frotnrs-d2t09.flac
3:24.30 36056204 --- -- ---xx jh-frotnrs-d2t10.flac
2:31.25 26695244 --- -- ---xx jh-frotnrs-d2t11.flac
11:15.10 119093564 --- -- ---xx jh-frotnrs-d2t12.flac
7:45.53 82150700 --- -- ---xx jh-frotnrs-d2t13.flac
148:18.68 1569768016 B (totals for 20 files, 0.4913 overall compression ratio)

paul56
03-12-08, 11:17 AM
It would be great if those who complete the download stick around and help seed !!!

This is a community, and the way it should work is all of the music is free, and please give back what you take ~ that means you should all be at a 1.00 ratio or better.

Why should I want to continue week after week and upload great shows to people who don't even help seed what they take? If you have nothing to upload at least help seed !

toofiedog
03-12-08, 03:50 PM
Thanks for the show Paul. I was lucky enough to find an original copy of this 2 cd set years ago. I agree with you that it is a good one. I paid a good buck for this show and agree with you that if you are kind enough to share it than everyone should be seeding it. I myself don't have the greatest ratio but do leave my shows on at least 2 weeks after downloading them. I hope everyone takes your good advice!!!

freesteve
03-12-08, 08:22 PM
:thayou219bl:
Jimi Hendrix

Liberated Bootleg
"The First Rays Of The New Rising Sun"
Triangle PYCD 084-2


http://i260.photobucket.com/albums/ii33/paul56_bucket/firstrayscover.jpg



http://i260.photobucket.com/albums/ii33/paul56_bucket/firstraysback.jpg



Original CDs > EAC > SHN > FLAC

d1:
01. Izabella (Tk 1-3 reel3, Tk 1-3 reel4)
02. Machine Gun (Try Out)
03. I'm A Man (So I'm Trying To Be) (Tk1)
04. Lord I Can See The Blues (For Me And You)
05. I'm A Man (So I'm Trying To Be) (Tk 2)
06. Beginnings (Alt Intr Mix)
07. Valleys of Neptune (Instr Blues Jam)

d2:
01. Send My Love To Linda (Tk 1-3)
02. Ships Passing In The Night
03. Heaven Has No Sorrow (Tk 1-2)
04. Valleys Of Neptune (Instr)
05. Alcatrazz
06. Night Bird Flying
07. Live And Let Live
08. Highway Of Desire / $7 Dollar In My Pocket
09. Midnight Lightning
10. Angel
11. Look Over Yonder
12. Astroman (Instr)
13. 1983... A Merman I Should Turn To Be

Notes: EXCELLENT quality studio outtakes and jam sessions recorded with the Cry of Love band at The Record Plant (1969) and Electric Lady Studios (1970).

This is not an illegitimate version of the Experience Hendrix release of the same name.

This was released in 1993 and remains as one of my favorite bootlegs. Not to toot my own horn, but every Hendrix fan should get this. I won't say why; the music speaks for itself.

originally seeded by dizong at ezt

Special thanks to JellyBelly for sharing !

*****************************
MP3 FOR PERSONAL USE ONLY!!!!
DO NOT SELL!!!!!!!!!!!!!!!!!!
*****************************

cd2974c81c3d29052ad0a740326a8d66 [shntool] jh-frotnrs-d1t01.flac
8f64d7cd0135ea68229697c54aa583c7 [shntool] jh-frotnrs-d1t02.flac
af3449f9369e17c2c1a0f6a0a2448a0d [shntool] jh-frotnrs-d1t03.flac
f2254b8739a05882e5887153e46db385 [shntool] jh-frotnrs-d1t04.flac
a79c1d9923ac8b4d653bd15f0d4bcfce [shntool] jh-frotnrs-d1t05.flac
ab60a0eba3c6e78557bdd8253ea5d8d7 [shntool] jh-frotnrs-d1t06.flac
840b1fbc9db3b452efdf85aa3da15d09 [shntool] jh-frotnrs-d1t07.flac
049b3249fdbe9574de4422aaffced36a [shntool] jh-frotnrs-d2t01.flac
1091721949377c0c86f3c49d301fd8bd [shntool] jh-frotnrs-d2t02.flac
d7e7a25bbeea89d7ccbb9772c34302d3 [shntool] jh-frotnrs-d2t03.flac
345b12404e50cd852d4dfd2d8edaf641 [shntool] jh-frotnrs-d2t04.flac
624f9cdb2d6d8c68ce09e1057e62c344 [shntool] jh-frotnrs-d2t05.flac
c5b0ede87cccee380ccf90a9e335cf20 [shntool] jh-frotnrs-d2t06.flac
e4a6ec2856e63e6d18c0b9a1c7cd6524 [shntool] jh-frotnrs-d2t07.flac
59eff13b12c1b0d4be36075842685ef3 [shntool] jh-frotnrs-d2t08.flac
26979a7ef9b21762f628aa22b2458ce7 [shntool] jh-frotnrs-d2t09.flac
3678391cf642fe8e4b08fee38844be1d [shntool] jh-frotnrs-d2t10.flac
9ef33f709819d7689006fa4a670626b3 [shntool] jh-frotnrs-d2t11.flac
05386d6f781ce6e3dd5e5d6244532608 [shntool] jh-frotnrs-d2t12.flac
c6e230bdb254afd2c66f8da4c2170234 [shntool] jh-frotnrs-d2t13.flac

length expanded size cdr WAVE problems filename
16:32.55 175118204 --- -- ---xx jh-frotnrs-d1t01.flac
12:50.18 135870380 --- -- ---xx jh-frotnrs-d1t02.flac
16:06.50 170520044 --- -- ---xx jh-frotnrs-d1t03.flac
9:19.20 98654684 --- -- ---xx jh-frotnrs-d1t04.flac
7:15.12 76762268 --- -- ---xx jh-frotnrs-d1t05.flac
5:27.43 57783980 --- -- ---xx jh-frotnrs-d1t06.flac
4:33.50 48274844 --- -- ---xx jh-frotnrs-d1t07.flac
4:00.57 42470108 --- -- ---xx jh-frotnrs-d2t01.flac
2:39.58 28184060 --- -- ---xx jh-frotnrs-d2t02.flac
7:28.62 79173068 --- -- ---xx jh-frotnrs-d2t03.flac
2:57.55 31352204 --- -- ---xx jh-frotnrs-d2t04.flac
4:15.38 45071420 --- -- ---xx jh-frotnrs-d2t05.flac
3:30.35 37126364 --- -- ---xx jh-frotnrs-d2t06.flac
5:49.05 61575404 --- -- ---xx jh-frotnrs-d2t07.flac
14:16.50 151116044 --- -- ---xx jh-frotnrs-d2t08.flac
6:18.17 66719228 --- -- ---xx jh-frotnrs-d2t09.flac
3:24.30 36056204 --- -- ---xx jh-frotnrs-d2t10.flac
2:31.25 26695244 --- -- ---xx jh-frotnrs-d2t11.flac
11:15.10 119093564 --- -- ---xx jh-frotnrs-d2t12.flac
7:45.53 82150700 --- -- ---xx jh-frotnrs-d2t13.flac
148:18.68 1569768016 B (totals for 20 files, 0.4913 overall compression ratio)

Mr Machine HeaD
11-29-08, 10:31 PM
Thank-You For Another Jammin' set !!!!!

Johnson10
11-30-08, 06:10 AM
THX, great compilation!

tWreCK
11-30-08, 09:12 AM
Thx - would appreciate a re-seed :)

manfree
11-30-08, 10:34 AM
Hope I can help

thunderbaas
12-08-09, 11:54 AM
Just had a listen...... AWSUM!!!!! Highly recomanded to you CTT ers who didn't get this one yet.Great compilation of Excellent sounding studio takes!!!!
Thanks a lot Paul56 for uploading this Gem .

Thunderbaas

ruud
12-09-09, 02:14 PM
What can I do, can't download because my ratio is to low.......trying to help but that's impossible now. Very confusing!!

best, Ruud

Zelgadis
12-09-09, 04:07 PM
Looking forward to this one!!

pgl33433
12-16-09, 07:13 AM
Thank you very much for this.
Copy that - I'll stay on and seed.
Phil

Trotzkee
12-16-09, 10:44 PM
Thanks, this is truly great as you say. It and "Strate Ahead" are very similar, and I love them both.

thunderjack
01-13-11, 08:26 PM
Thank you, Paul56 and everyone still seeding. I look forward to checking this one out!

SpaceBlues
01-15-11, 01:57 AM
Thank you for sharing!!

aboslutes
03-08-11, 06:30 PM
Thanx 4 this

bluesunday
03-09-11, 10:30 PM
I couldn't agree with you more. But some of us are "seed challenged" and can't figure out how to seed more. We use an app like Vuze but it doesn't seem to upload as much as one would like. What is one supposed to do?? I've given money to crosstowntorrents so I hope that helps.



It would be great if those who complete the download stick around and help seed !!!

This is a community, and the way it should work is all of the music is free, and please give back what you take ~ that means you should all be at a 1.00 ratio or better.

Why should I want to continue week after week and upload great shows to people who don't even help seed what they take? If you have nothing to upload at least help seed !

jhendrixfanatic
03-10-11, 01:52 PM
This was released in 1993 and remains as one of my favorite bootlegs. Not to toot my own horn, but every Hendrix fan should get this. I won't say why; the music speaks for itself. - Paul 56

Thank you , there is a lot of great stuff here.

- seed til ya bleed -

misterriff
03-10-11, 04:24 PM
Thanks man

Fuzzlord
03-10-11, 05:14 PM
Thanks a lot.

zombywoof57
03-10-11, 11:52 PM
many thanks

crazy_cat
09-28-11, 05:01 AM
thanks