PDA

View Full Version : Jimi Hendrix Experience - Copenhagen - January 10, 1969 (1st Show) - ATM 27



rocknroll
09-15-09, 06:44 AM
JIMI HENDRIX EXPERIENCE
In the Land of the Midnight Sun [aka. "Copenhagen '69"] (ATM 027 / 13.03.1999 / 1CDR)
Falkoner Centret, Copenhagen, Denmark
January 10, 1969 [Complete 1st Show]

Very Good Audience Recording; "Far Tape" Master (with minor patches from the "Near Tape")
Pitch corrected, Heavily EQ'd and lightly de-noised
Notes: Oops! There's only Midnight Sun north of the arctic circle,
so Denmark can hardly be described as "The Land of the Midnight Sun" ... ;-)
Artwork Included
For more infos about Jimi Hendrix ATM's releases & more, visit: http://home.online.no/~hpjohnse/hendrix.html

Tracklisting:
1. FIRE
2. TAX FREE
3. SPANISH CASTLE MAGIC
4. RED HOUSE
5. SUNSHINE OF YOUR LOVE
6. I DON'T LIVE TODAY
7. STAR SPANGLED BANNER
8. PURPLE HAZE


length expanded size cdr WAVE problems filename
4:17.07 45351308 --- -- ---xx 01 Track 01.flac
5:50.63 61888220 --- -- ---xx 02 Track 02.flac
12:14.49 129592892 --- -- ---xx 03 Track 03.flac
9:33.49 101192492 --- -- ---xx 04 Track 04.flac
15:08.18 160213580 --- -- ---xx 05 Track 05.flac
9:39.13 102166220 --- -- ---xx 06 Track 06.flac
7:43.65 81826124 --- -- ---xx 07 Track 07.flac
4:49.00 50979644 --- -- ---xx 08 Track 08.flac
69:16.39 733210480 B
(totals for 8 files, 0.2925 overall compression ratio)

Enjoy, Share & Preserve Quality !!!
Brought to You by BP
[June 2006]


4e09a0242e998b08fca1b58436e4e637 *01 Track 01.flac
4329ccec8e3ce67dde5532343daeacc5 *02 Track 02.flac
388d884a4c6fd693ae40d43983a41201 *03 Track 03.flac
675be22c3312ea8ef770bd45ec5d0b0f *04 Track 04.flac
0beabea94cc8e4f5a55c512bcda8e871 *05 Track 05.flac
f159bf6990796cddd3f5cac5fd602ea0 *06 Track 06.flac
3de99e4205849710973120e4f90ae51c *07 Track 07.flac
b5a319a382a12f96ab17a7a2cf7717d6 *08 Track 08.flac
cf084d8110816e8dbd0a94cfd9f01ba7 *Infos.txt

voodoo
10-31-10, 12:39 AM
Thanks. This is a fantastic show. Hendrix goes crazy on I don't live today.

terrybarber
10-31-10, 04:28 AM
Thanks! I can now put this together with the 2nd show!

Jukezz
01-20-11, 02:20 PM
Oh Yes, nice to have these two together on one cd!! Grreat ;)

jhendrixfanatic
02-18-11, 04:56 PM
I found out about CTT because Jamminjimi lost his site on Youtube and someone told me he might be here. I missed him but left a question about a IDLT that he posted on Youtube that I could never find, and I looked. He told me yesterday ( as did UCHI, who was also a big fan of the version). Anyway, I'm downloading it now and I can't wait to hear it again. Thank You RnR (and Jammin and UCHI)!!