PDA

View Full Version : Flamingo Club, London 2/4/67 3rd gen



kcox5342
06-03-08, 02:21 AM
I saw this was posted, determined to be from a CDR rip of unknown quality, and pulled. Since I completely support this policy, I hope these files I downloaded from Dime in 2005 would supply the needed material in its proper form. If there's a lower-generation source I'm all ears.

Original info file:


artist: JIMI HENDRIX EXPERIENCE

place: THE FLAMINGO CLUB, 33-37 WARDOUR STREET, LONDON W1

date: FEBRUARY 4, 1967

source: AUDIENCE RECORDING

lineage: MASTER > 3rd GENERATION TAPE > DAT > CDR

notes: THE FLAMINGO CLUB RECORDING IS THE EARLIEST KNOWN RECORDING OF THE BAND IN CONCERT IN ENGLAND.
IT'S REALLY GOOD FOR A RECORDING OF THIS VINTAGE WITH CLEAR ENOUGH VOCALS & GUITAR AND IT'S THE CLOSEST WE ARE LIKELY
TO GET TO THE EXPERIENCE OF THE BAND IN A SMALL CLUB SITUATION AS THEY BROKE NEW GROUND IN THE EARLY MONTHS OF 1967.


tracks:
1. KILLING FLOOR
2. HAVE MERCY BABY
3. CAN YOU SEE ME
4. LIKE A ROLLING STONE
5. ROCK ME BABY
6. EXPERIENCING THE BLUES (CATFISH BLUES)
7. STONE FREE
8. HEY JOE
9. WILD THING

length expanded size cdr WAVE problems filename
1:11.52 12646748 --- -- ---xx Track 1.flac
3:37.48 38391740 --- -- ---xx Track 2.flac
3:52.45 41030684 --- -- ---xx Track 3.flac
8:30.10 89987564 --- -- ---xx Track 4.flac
3:09.49 33454892 --- -- ---xx Track 5.flac
8:29.62 89933468 --- -- ---xx Track 6.flac
3:32.23 37450940 --- -- ---xx Track 7.flac
3:52.28 40990700 --- -- ---xx Track 8.flac
8:01.62 84994268 --- -- ---xx Track 9.flac
44:18.04 468881004 B
(totals for 9 files, 0.4971 overall compression ratio)


Enjoy, Share & Preserve Quality !!!
Brought to You by BP
[October 2005]

paul56
06-03-08, 03:33 PM
I have this one, if anyone would like me to post it:

JIMI HENDRIX EXPERIENCE

http://i260.photobucket.com/albums/ii33/paul56_bucket/Jimi-Hemdrix-Flamigo-Club-b.jpg

Linage: Unknown transfer > EAC > WAV > FLAc

THE FLAMINGO CLUB, WARDOUR STREET, LONDON W1
4th FEBRUARY 1967

tracks:
1. KILLING FLOOR
2. HAVE MERCY BABY
3. CAN YOU SEE ME
4. LIKE A ROLLING STONE
5. ROCK ME BABY
6. CATFISH BLUES
7. STONE FREE
8. HEY JOE
9. WILD THING


THE CORN EXCHANGE, CHELMSFORD, ESSEX
25th February 1967

tracks:
10. Stone Free
11. LIKE A ROLLING STONE


"Christmas on Earth Continued:
Grand and National Halls, Kensington, London
22nd December 1967

12. SGT. PEPPER'S LONLY HEARTS CLUD BAND
13. FOXY LADY
14. WILD THING

Ganoosh
06-03-08, 03:58 PM
^ "The Corn Exchange" has been officially released (monterey bonus?) as Johan pointed out in my thread.

Is it considered taboo to remove parts of a torrent? If not then just clip out the official stuff and share the wealth! I'm obviously clueless as to whether the lineage on yours is better than what we have here but it doesn't seem like it.

btw thank you Kcox.

pietroanania
06-05-08, 12:39 AM
please front and rear clear cover art

firstrays
06-05-08, 04:20 AM
Various Flamingo artwork here -

http://www.angelfire.com/rock3/jimi0/purple/

firstrays

voodoo
09-24-10, 02:57 PM
Thanks. This is an awesome gig. The whole set rocks!

scouse303
09-25-10, 04:01 PM
Thanks. This is an awesome gig. The whole set rocks!


rumoured to have been recorded by John Mayall

s303

Davey
09-26-10, 06:55 AM
Thank you!